blue bloods GREYS ANATOMY 2160p arrow español BlacKkKlansman etmovies star trek discovery español The flash 1080p YIFY macgyver Titans ufc ıt 2017 lethal weapon Blindspot the walking dead great british bake off s09e09 nfl cooltrane big bang theory español hindi 2018 ita fgt star trek discovery arrow Shameless doctor who jam miami formula 1 a star is born 2018 movies bbc south park web developer formula High Castle s03e07 Alpha 2018 coral egan game of thrones walking dead evo Big Bang Theory a discovery of witches vikings Incredibles 2 WWE ethd A Discovery of Witches S01E07 dtone Survivor venom claude quartet the good doctor ita the big bang theory ти пудовый champian fulton ddr porn ncis supergirl doctor who s11e04 0 ufc fight night 138 Chilling Adventures of Sabrina ettv etrg supernatural 
Warning! Do not Download Without a VPN!
Your IP Address is .   Location is
Download and surf securely, stream unlimited and protect your personal data!
We strongly recommend using SpyOFF VPN!
Become Anonymous with SpyOFF
ETTV Recommended TV Shows
Ghost.Adventures.S16E13.Cape.Disappointment.iNTERNAL.720p.HDTV.x264-DHD[ettv] torrent
UFC Fight Night 138 Volkan vs Smith HDTV x264-Ebi [TJET] torrent
Kidding.S01E08.Philliam.720p.AMZN.WEB-DL.DDP5.1.H.264-NTb[ettv] torrent
Doctor.Who.2005.S11E04.HDTV.x264-RiVER[ettv] torrent

ETTV Recommended Xvid
A-X-L.2018.HDRip.XviD.AC3-EVO[EtMovies] torrent
Nun.2017.HDRip.XviD.AC3-EVO torrent
Our.House.2018.BRRip.XViD-ETRG torrent
Charming.2018.BDRip.XviD.AC3-EVO torrent

ETTV Recommended HD
Down.a.Dark.Hall.2018.1080p.Bluray.x264.DTS-HDMA.5.1-DTOne torrent
Slender.Man.2018Multi.1080p.Bluray.x264.DTS-HDMA.5.1-DTOne torrent
Reprisal.2018.1080p.Bluray.x264.DTS-HDMA.5.1-DTOne torrent
Warning.Shot.2018.1080p.Bluray.x264.DTS-HDMA.5.1-DTOne torrent

ETTV Recommended UHD
Twilight.2008.Multi.UHD.2160p.Bluray.x265.HEVC.HDR.DD.5.1-DTOne torrent
Mamma.Mia.Here.We.Go.Again.2018.Multi.UHD.2160p.Bluray.x265.HDR.DDP.7.1-DTOne torrent
Only.The.Brave.2017.UHD.2160p.Bluray.x265.HDR.DD.5.1-DTOne torrent
The.Matrix.Reloaded.2003.Multi.UHD.2160p.Bluray.Remux.HEVC.HDR.Atmos.7.1-DTOne torrent

ETTV Recommended Cam
Goosebumps 2 Haunted Halloween 2018 HDTS.x264.AC3-ETRG torrent
Halloween 2018.HDCAM.XViD.AC3-ETRG torrent
Night School 2018 HDTS XViD AC3-ETRG torrent
King of Thieves 2018.HDTS.x264.AC3-ETRG torrent

ETTV Recommended Foreign
Redbad.2018.Multi.1080p.Bluray.x264.DTS.5.1-DTOne torrent
Baar.Baar.Dekho.2018.Complete.1080p.Ger.Bluray.DD.5.1-DTOne torrent
Hotel Transylvania 3 (2018) 720p BluRay x264 Dual Audio [Hindi DD5.1 - English DD2.0] - ESUBS ~ Exclusice By Ranvijay torrent
Saamy² (2018) [TAMIL - 1080p - WEB HDRip - x264 - DD 5.1 - ESub - 2GB] - MAZE torrent

Social


Download Torrent "Lucifer S03E25 (1080p AMZN WEB-DL x265 HEVC 10bit AAC 5.1 Qman) [UTR]"

IMDB Details
Description:

N/A

Genre:

N/A

Download Torrent (Magnet)
Download Torrent (File)
Seeds: 41
Leechers: 14
Completed: 691 
Last Checked: 03-06-2018 10:22:10


Loading...
Details
Title:Lucifer S03E25 (1080p AMZN WEB-DL x265 HEVC 10bit AAC 5.1 Qman) [UTR]
Description:




Media Information
General
Format                                   : Matroska
Format version                           : Version 4 / Version 2
File size                                : 569 MiB
Duration                                 : 43 min 47 s
Overall bit rate                         : 1 817 kb/s
Encoded date                             : UTC 2018-06-01 04:27:06
Writing application                      : mkvmerge v23.0.0 ('The Bride Said No') 64-bit
Writing library                          : libebml v1.3.6 + libmatroska v1.4.9

Video
ID                                       : 1
Format                                   : HEVC
Format/Info                              : High Efficiency Video Coding
Format profile                           : Main [email protected]@Main
Codec ID                                 : V_MPEGH/ISO/HEVC
Duration                                 : 43 min 47 s
Bit rate                                 : 1 623 kb/s
Width                                    : 1 920 pixels
Height                                   : 1 080 pixels
Display aspect ratio                     : 16:9
Frame rate mode                          : Constant
Frame rate                               : 23.976 (24000/1001) FPS
Color space                              : YUV
Chroma subsampling                       : 4:2:0
Bit depth                                : 10 bits
Bits/(Pixel*Frame)                       : 0.033
Stream size                              : 508 MiB (89%)
Writing library                          : x265 2.8+3-450421921079:[Windows][MSVC 1914][64 bit] 10bit
Encoding settings                        : cpuid=1111039 / frame-threads=4 / numa-pools=16 / wpp / no-pmode / no-pme / no-psnr / no-ssim / log-level=2 / input-csp=1 / input-res=1920x1080 / interlace=0 / total-frames=62991 / level-idc=0 / high-tier=1 / uhd-bd=0 / ref=3 / no-allow-non-conformance / no-repeat-headers / annexb / no-aud / no-hrd / info / hash=0 / no-temporal-layers / open-gop / min-keyint=23 / keyint=250 / gop-lookahead=0 / bframes=4 / b-adapt=2 / b-pyramid / bframe-bias=0 / rc-lookahead=20 / lookahead-slices=6 / scenecut=40 / radl=0 / no-intra-refresh / ctu=64 / min-cu-size=8 / no-rect / no-amp / max-tu-size=32 / tu-inter-depth=1 / tu-intra-depth=1 / limit-tu=0 / rdoq-level=1 / dynamic-rd=0.00 / no-ssim-rd / signhide / no-tskip / nr-intra=0 / nr-inter=0 / no-constrained-intra / no-strong-intra-smoothing / max-merge=2 / limit-refs=3 / no-limit-modes / me=3 / subme=2 / merange=57 / temporal-mvp / weightp / no-weightb / no-analyze-src-pics / deblock=-1:-1 / sao / no-sao-non-deblock / rd=3 / no-early-skip / rskip / no-fast-intra / no-tskip-fast / no-cu-lossless / no-b-intra / no-splitrd-skip / rdpenalty=0 / psy-rd=0.35 / psy-rdoq=0.00 / no-rd-refine / no-lossless / cbqpoffs=0 / crqpoffs=0 / rc=crf / crf=24.0 / qcomp=0.60 / qpstep=4 / stats-write=0 / stats-read=0 / ipratio=1.40 / pbratio=1.30 / aq-mode=3 / aq-strength=1.00 / cutree / zone-count=0 / no-strict-cbr / qg-size=32 / no-rc-grain / qpmax=69 / qpmin=0 / no-const-vbv / sar=0 / overscan=0 / videoformat=5 / range=0 / colorprim=2 / transfer=2 / colormatrix=2 / chromaloc=0 / display-window=0 / max-cll=0,0 / min-luma=0 / max-luma=1023 / log2-max-poc-lsb=8 / vui-timing-info / vui-hrd-info / slices=1 / no-opt-qp-pps / no-opt-ref-list-length-pps / no-multi-pass-opt-rps / scenecut-bias=0.05 / no-opt-cu-delta-qp / no-aq-motion / no-hdr / no-hdr-opt / no-dhdr10-opt / no-idr-recovery-sei / analysis-reuse-level=5 / scale-factor=0 / refine-intra=0 / refine-inter=0 / refine-mv=0 / no-limit-sao / ctu-info=0 / no-lowpass-dct / refine-mv-type=0 / copy-pic=1 / max-ausize-factor=1.0 / no-dynamic-refine / no-single-sei
Language                                 : English
Default                                  : Yes
Forced                                   : No

Audio
ID                                       : 2
Format                                   : AAC
Format/Info                              : Advanced Audio Codec
Format profile                           : HE-AAC / LC
Codec ID                                 : A_AAC
Duration                                 : 43 min 47 s
Bit rate                                 : 192 kb/s
Channel(s)                               : 6 channels
Channel(s)_Original                      : 18 channels
Channel positions                        : Front: 5, Side: 7, Back: 4, LFE= 2
Sampling rate                            : 48.0 kHz / 24.0 kHz
Frame rate                               : 23.438 FPS (1024 spf)
Compression mode                         : Lossy
Delay relative to video                  : 34 ms
Stream size                              : 60.1 MiB (11%)
Language                                 : English
Default                                  : Yes
Forced                                   : No

Subtitle
ID                                       : 3
Format                                   : UTF-8
Codec ID                                 : S_TEXT/UTF8
Codec ID/Info                            : UTF-8 Plain Text
Duration                                 : 43 min 4 s
Bit rate                                 : 92 b/s
Count of elements                        : 925
Stream size                              : 29.0 KiB (0%)
Language                                 : English
Default                                  : Yes
Forced                                   : No

Source Information
Release: Unknown Source/NO-GROUP


UTR wrote:

Note From UTR
We have no issue with individuals posting or re-uploading our torrents on a platform we aren't on. However, if this is something you'd like to do, please do so in a 'as-is' format. We ask that you do not create a new torrent, include all descriptions you see above including the UTR logo, tags, notes and screenshots. If you'd like to become a permanent poster on a website we don't post to, feel free to get in contact with a UniTeam member.

If possible please donate: BTC 1QA5fum5AyXvWzdVCkQzUNvw3Ef15fHRaR


Category:TV > HEVC/x265
Lang:English  English
Total Size:569 MB
Info Hash:d933dc1adc42245db5e732ce78d44fc1adb14d2b
Added By:UTR
Date Added:03-06-2018 10:22:07

Files

File List: 
 File Size
Lucifer.S03E25.1080p.AMZN.WEB-DL.x265.10bit.AAC.16.1-Qman[UTR].mkv569 MB



Loading...
Comments

There are currently no comments. Be the first one to write something !

Disclaimer: None of the files shown here are actually hosted or transmitted by this server. The links are provided solely by this site's users. The site moderation is also a service provided by the site's users. The administrator of this site (ettv.tv) cannot be held responsible for what its users post, or any other actions of its users. You may not use this site to distribute or download any material when you do not have the legal rights to do so. It is your own responsibility to adhere to these terms.

Sitemap